The.Child.2012.BRRip XViD juggs

  • Category Movies
  • Type Divx/Xvid
  • Language English
  • Total size 709.0 MB
  • Uploaded By juggs
  • Downloads 580
  • Last checked 2 days ago
  • Date uploaded 5 years ago
  • Seeders 0
  • Leechers 1

Infohash : E7F9E3FB3BF23174AEDB0AB7598E17B23E7A409C




Format : AVI
Format/Info : Audio Video Interleave
File size : 702 MiB
Duration : 1h 58mn
Overall bit rate : 828 Kbps
Writing library : VirtualDub build 32842/release

Video
ID : 0
Format : MPEG-4 Visual
Format profile : Advanced [email protected]
Format settings, BVOP : 2
Format settings, QPel : No
Format settings, GMC : No warppoints
Format settings, Matrix : Default (H.263)
Muxing mode : Packed bitstream
Codec ID : XVID
Codec ID/Hint : XviD
Duration : 1h 58mn
Bit rate : 690 Kbps
Width : 640 pixels
Height : 272 pixels
Display aspect ratio : 2.35:1
Frame rate : 24.000 fps
Color space : YUV
Chroma subsampling : 4:2:0
Bit depth : 8 bits
Scan type : Progressive
Compression mode : Lossy
Bits/(Pixel*Frame) : 0.165
Stream size : 586 MiB (83%)
Writing library : XviD 64

Audio
ID : 1
Format : MPEG Audio
Format version : Version 1
Format profile : Layer 3
Codec ID : 55
Codec ID/Hint : MP3
Duration : 1h 58mn
Bit rate mode : Constant
Bit rate : 128 Kbps
Channel(s) : 2 channels
Sampling rate : 44.1 KHz
Compression mode : Lossy
Stream size : 109 MiB (15%)
Alignment : Split accross interleaves
Interleave, duration : 42 ms (1.00 video frame)
Interleave, preload duration : 500 ms
Writing library : LAME3.99r
Encoding settings : -m s -V 4 -q 3 -lowpass 17 -b 128


Plot
Defence attorney Robert Stern can scarcely believe his eyes when he meets with the mysterious client who has summoned him to a godforsaken industrial park. To his astonishment, the defendant is a ten-year-old boy, a fragile child with a chronic illness who insists that he was a murderer in a former life. Robert Stern’s surprise turns into horror when he searches the cellar described by Simon and finds a human skeleton whose skull has been split by an axe. But this is only the beginning. Simon tells him of other victims whose bodies have lain undiscovered for years. Suddenly, the present becomes murderously dangerous as well







Files:

  • The.Child.2012.BRRip XViD juggs.avi (702.2 MB)
  • Torrent Downloaded From ExtraTorrent.com.txt (0.3 KB)
  • sample.avi (6.8 MB)

Comments

Code:

  • udp://tracker.publicbt.com:80/announce
  • udp://fr33domtracker.h33t.com:3310/announce
  • http://exodus.desync.com:6969/announce
  • udp://tracker.yify-torrents.com/announce
  • http://fr33dom.h33t.com:3310/announce
  • udp://fr33dom.h33t.com:3310/announce
  • http://tracker.coppersurfer.tk:6969/announce
  • udp://tracker.openbittorrent.com:80/announce
  • udp://ipv4.tracker.harry.lu:80/announce
  • http://94.228.192.98/announce
  • udp://10.rarbg.com/announce
  • udp://9.rarbg.com:2710/announce
SitemapDownload ringtone | Dokumentalny | Test Drive Unlimited 29 minutes